MotoGP 2015 Round 11 – Free Practice 1 (FP1) – Czech GP at Brno 720p (Motor Bikes)

MotoGP 2015 Round 11 – Free Practice 1 (FP1) – Czech GP at Brno 720p

Official MotoGP.com feed (English).

Stream #0:0: Video: h264 (Main), yuv420p, 1280×720 [SAR 1:1 DAR 16:9]
2305 kb/s, 25 fps, 25 tbr, 1k tbn, 50 tbc

Stream #0:1: Audio: aac (faac) , 48000 Hz, stereo, fltp, 96kbps


Download motogp.2015.round.11.free.practice.1.fp1.czech.gp.at.brno.720p.motor.bikes.zip
Direct Link


Download


Download motogp.2015.round.11.free.practice.1.fp1.czech.gp.at.brno.720p.motor.bikes.zip
Mediafire


Download


Download motogp.2015.round.11.free.practice.1.fp1.czech.gp.at.brno.720p.motor.bikes.zip
Uploadrocket


Download

Both comments and pings are currently closed.

Comments are closed.